<?xml version="1.0" standalone="no"?>
<!DOCTYPE svg PUBLIC "-//W3C//DTD SVG 1.1//EN" "http://www.w3.org/Graphics/SVG/1.1/DTD/svg11.dtd" >
<svg xmlns="http://www.w3.org/2000/svg">
<metadata>Generated by IcoMoon</metadata>
<defs>
<font id="icomoon" horiz-adv-x="1024">
<font-face units-per-em="1024" ascent="960" descent="-64" />
<missing-glyph horiz-adv-x="1024" />
<glyph unicode="&#x20;" horiz-adv-x="512" d="" />
<glyph unicode="&#xe01b;" glyph-name="av_timer" d="M256 426.667c0 24 18 42 42 42s44-18 44-42-20-42-44-42-42 18-42 42zM768 426.667c0-24-18-42-42-42s-44 18-44 42 20 42 44 42 42-18 42-42zM470 810.667h42c212 0 384-172 384-384s-172-384-384-384-384 172-384 384c0 126 60 236 154 306v2l290-290-60-60-232 230c-42-52-66-116-66-188 0-166 132-298 298-298s298 132 298 298c0 150-112 276-256 296v-82h-84v170zM470 212.667c0 24 18 44 42 44s42-20 42-44-18-42-42-42-42 18-42 42z" />
<glyph unicode="&#xe036;" glyph-name="paintbrush" horiz-adv-x="736" d="M721.602 891.589c-1.814 18.030-10.028 34.886-22.936 47.368-13.228 12.802-30.512 19.844-48.328 19.844h-564.676c-17.922 0-35.098-7.042-48.328-19.844-12.908-12.482-21.124-29.338-22.936-47.368v-541.524c1.814-18.030 10.028-34.886 22.936-47.368 13.228-12.802 30.512-19.844 48.328-19.844h155.972c4.374 0 19.95-0.426 33.712-6.294 16.002-6.722 23.79-17.922 23.79-34.138 0-80.76-16.856-117.886-23.256-131.86l-1.494-3.414-2.668-6.614-0.106-0.214c-5.228-13.762-7.788-28.058-7.788-42.354 0-34.992 9.814-65.076 28.484-86.84 18.882-22.19 45.128-33.926 75.746-33.926 30.938 0 57.396 11.736 76.492 33.818 18.776 21.764 28.698 51.848 28.698 86.946 0 13.228-2.24 26.35-6.614 39.152l-2.668 6.934-0.106 0.32c-0.854 1.92-3.2 6.934-4.694 9.708-6.614 12.482-20.27 38.406-20.27 128.34 0 16.216 18.030 40.432 67.53 40.432h143.916c17.922 0 35.098 7.042 48.328 19.844 12.908 12.482 21.124 29.338 22.936 47.368v541.524zM391.416 242.421c0-101.776 17.39-134.742 25.818-150.53l0.214-0.426c0.746-1.386 1.386-2.56 2.348-4.8 0-0.106 0.106-0.214 0.106-0.32 0.106-0.426 0.32-0.854 0.426-1.28 3.52-8.854 5.334-17.922 5.334-26.99 0-20.056-4.694-38.192-13.336-50.994-10.028-14.828-24.964-22.404-44.486-22.404-19.096 0-33.818 7.468-43.634 22.296-8.428 12.802-13.122 30.938-13.122 50.994 0 9.068 1.814 18.136 5.334 26.99l0.214 0.534c0.106 0.214 0.106 0.426 0.214 0.64 0.214 0.426 0.426 0.854 0.534 1.174l1.706 3.734c7.468 16.536 27.418 60.702 27.418 151.278-0.106 69.344-66.57 87.908-105.936 87.908h-154.904c-10.988 0-20.91 8.962-24.004 21.444v56.862h612.47v-56.756c-2.988-12.482-13.016-21.444-24.004-21.444h-143.81c-84.386 0-114.898-52.594-114.898-87.908zM674.128 563.859v-107.856h-612.362v107.856h612.362zM674.128 889.883v-278.55h-612.362v278.55c2.988 12.482 13.016 21.444 24.004 21.444h564.568c10.882 0 20.804-8.962 23.79-21.444z" />
<glyph unicode="&#xe042;" glyph-name="replay" d="M512 724.667c188 0 342-152 342-340s-154-342-342-342-342 154-342 342h86c0-142 114-256 256-256s256 114 256 256-114 256-256 256v-172l-214 214 214 214v-172z" />
<glyph unicode="&#xe0c7;" glyph-name="location_off" d="M500 448.667c118.353-116.98 236.568-234.098 354-352l-54-54-144 142c-72-106-144-184-144-184s-298 330-298 554c0 22 4 44 8 66l-136 136 54 54 356-356zM512 660.667c-32 0-58-14-78-36l-138 136c54 56 132 92 216 92 166 0 298-132 298-298 0-72-30-154-72-234l-154 156c22 20 34 46 34 78 0 58-48 106-106 106z" />
<glyph unicode="&#xe254;" glyph-name="mode_edit" d="M884 638.667l-78-78-160 160 78 78c16 16 44 16 60 0l100-100c16-16 16-44 0-60zM128 202.667l472 472 160-160-472-472h-160v160z" />
<glyph unicode="&#xe25d;" glyph-name="drag_handle" d="M170 298.667v86h684v-86h-684zM854 554.667v-86h-684v86h684z" />
<glyph unicode="&#xe313;" glyph-name="arrow-down" d="M316 604.667l196-196 196 196 60-60-256-256-256 256z" />
<glyph unicode="&#xe315;" glyph-name="arrow-right" d="M366 240.667l196 196-196 196 60 60 256-256-256-256z" />
<glyph unicode="&#xe55b;" glyph-name="map" d="M640 128.667v506l-256 90v-506zM874 810.667c12 0 22-10 22-22v-644c0-10-8-18-16-20l-240-82-256 90-228-88-6-2c-12 0-22 10-22 22v644c0 10 8 18 16 20l240 82 256-90 228 88z" />
<glyph unicode="&#xe55c;" glyph-name="my_location" d="M512 128.667c166 0 298 132 298 298s-132 298-298 298-298-132-298-298 132-298 298-298zM894 468.667h88v-84h-88c-20-178-162-320-340-340v-88h-84v88c-178 20-320 162-340 340h-88v84h88c20 178 162 320 340 340v88h84v-88c178-20 320-162 340-340zM512 596.667c94 0 170-76 170-170s-76-170-170-170-170 76-170 170 76 170 170 170z" />
<glyph unicode="&#xe56b;" glyph-name="zoom_out_map" d="M896 298.667v-256h-256l98 98-124 122 62 62 122-124zM384 42.667h-256v256l98-98 122 124 62-62-124-122zM128 554.667v256h256l-98-98 124-122-62-62-122 124zM640 810.667h256v-256l-98 98-122-124-62 62 124 122z" />
<glyph unicode="&#xe5cd;" glyph-name="close" d="M810 686l-238-238 238-238-60-60-238 238-238-238-60 60 238 238-238 238 60 60 238-238 238 238z" />
<glyph unicode="&#xe869;" glyph-name="build" d="M968 128.667c18-12 18-42-4-60l-98-98c-18-18-42-18-60 0l-388 388c-98-38-212-18-294 64-86 86-108 214-56 316l188-184 128 128-184 184c102 46 230 30 316-56 82-82 102-196 64-294z" />
<glyph unicode="&#xe8b4;" glyph-name="room" d="M512 448.667c58 0 106 48 106 106s-48 106-106 106-106-48-106-106 48-106 106-106zM512 852.667c166 0 298-132 298-298 0-224-298-554-298-554s-298 330-298 554c0 166 132 298 298 298z" />
<glyph unicode="&#xe8ee;" glyph-name="view_headline" d="M170 724.667h684v-84h-684v84zM170 468.667v86h684v-86h-684zM170 128.667v84h684v-84h-684zM170 298.667v86h684v-86h-684z" />
<glyph unicode="&#xe900;" glyph-name="home" d="M1024 369.556l-512 397.426-512-397.428v162.038l512 397.426 512-397.428zM896 384v-384h-256v256h-256v-256h-256v384l384 288z" />
<glyph unicode="&#xe901;" glyph-name="expand" d="M919 893.5h-793c-31.1 0-56.5-25.5-56.5-56.9v-228.1h58.3v226.4h789.4v-797.8h-224.8v-58.6h226.6c31.1 0 56.5 25.5 56.5 57v801.1c0 31.4-25.3 56.9-56.5 56.9zM693 442.2c0-15.2 12.2-27.6 27.4-27.6s27.5 12.4 27.5 27.6v193.8c0 15.2-12.3 27.6-27.5 27.6h-191.8c-15.2 0-27.5-12.4-27.5-27.6s12.3-27.6 27.5-27.6h125.8l-137.2-138.6h-396.2c-28.4 0-51.5-23.2-51.5-51.8v-387.7c0-28.5 23.1-51.8 51.5-51.8h383.6c28.4 0 51.5 23.3 51.5 51.9v400.4l136.9 138.2v-126.8zM501.1 33.7h-376.6v380.9h376.6v-380.9z" />
<glyph unicode="&#xe903;" glyph-name="bookmark" d="M608.1 847h-192.2c-61.1 0-110.9-49.7-110.9-110.7v-708.5l207 207 207-207v708.5c0 61-49.8 110.7-110.9 110.7zM416 785h192c27 0 49-21.9 49-48.8v-559.2l-145 145-145-145v559.2c0 26.9 22 48.8 49 48.8z" />
<glyph unicode="&#xe904;" glyph-name="add-to-selection" d="M594.133 416.8h-40v-33.333h-33.333v-40h73.333zM208.533 383.467h89.2v-40h-89.2v40zM364.667 383.467h89.2v-40h-89.2v40zM108.4 416.8h-40v-73.333h73.333v40h-33.333zM68.4 572.8h40v-89.2h-40v89.2zM68.4 728.933h40v-89.2h-40v89.2zM68.4 795.867h40v33.333h33.333v40h-73.333zM364.667 869.2h89.2v-40h-89.2v40zM208.533 869.2h89.2v-40h-89.2v40zM554.133 795.867h40v73.333h-73.333v-40h33.333zM554.133 728.933h40v-89.2h-40v89.2zM554.133 572.8h40v-89.2h-40v89.2zM632.133 604.933v-40h186v-445.733h-445.733v182h-40v-222h525.733v525.733zM351.2 517.2v74h74v40h-74v74h-40v-74h-74v-40h74v-74z" />
<glyph unicode="&#xe906;" glyph-name="cog" d="M496 528c-44.2 0-80-35.8-80-80s35.8-80 80-80 80 35.8 80 80-35.8 80-80 80zM912 400v96h-61.7c-4.2 30.6-11.9 60-23.3 87.7l53.4 30.8-48 83.1-54.3-31.4c-18.7 23.6-40.4 44.6-64.4 62.7l32 55.4-83.1 48-32.7-56.5c-27.2 10.6-55.8 17.9-85.8 21.5v66.7h-96v-68.5c-29.1-4.5-57.3-12.2-83.6-23.4l-34.8 60.2-83.1-48 35.6-61.6c-22.3-17.9-42.2-38.5-59.6-61.2l-62.8 36.2-48-83.1 63.3-36.6c-10.3-25.9-17.5-53.4-21.4-81.9h-73.7v-96h73.5c3.9-28.5 11.1-55.9 21.4-81.9l-63.3-36.6 48-83.1 62.8 36.2c17.4-22.7 37.3-43.3 59.6-61.2l-35.6-61.7 83.1-48 34.8 60.2c26.3-11.2 54.4-18.9 83.6-23.4v-68.6h96v66.8c30 3.5 58.6 10.9 85.8 21.5l32.7-56.5 83.1 48-32 55.4c24.1 18.2 45.7 39.1 64.4 62.7l54.3-31.4 48 83.1-53.4 30.8c11.5 27.6 19.3 57 23.5 87.6h61.7zM495.7 240.3c-114.9 0-208 93.1-208 208s93.1 208 208 208 208-93.1 208-208-93.1-208-208-208z" />
<glyph unicode="&#xe907;" glyph-name="legend" horiz-adv-x="707" d="M455.2 349.467l233.733 97.2-233.733 97.2-99.867 405.467-99.867-405.6-233.733-97.067 233.733-97.067 99.867-405.6 99.867 405.467zM355.333 425.6v-358.933l-71.2 288.933 71.2 70zM446.133 377.6l-69.333 69.067h235.6l-166.267-69.067zM426.533 537.6l-5.333-5.333-65.733-64.8-0.133 0.133v359.067l71.2-289.067zM264.533 515.733l69.867-69.067h-236.133l166.267 69.067z" />
<glyph unicode="&#xe909;" glyph-name="new-selection" d="M774.133 129.333h-33.333v-40h73.333v73.333h-40zM521.2 129.333h125.467v-40h-125.467v40zM301.6 129.333h125.467v-40h-125.467v40zM174.133 162.667h-40v-73.333h73.333v40h-33.333zM134.133 601.867h40v-125.467h-40v125.467zM134.133 382.267h40v-125.467h-40v125.467zM134.133 696h40v33.333h33.333v40h-73.333zM301.6 769.333h125.467v-40h-125.467v40zM774.133 382.267h40v-125.467h-40v125.467zM728.8 823.6l79.867 98 6.933-126.133 122.133 32.4-68.533-106.267 117.867-45.6-117.867-45.6 68.533-106.267-122.133 32.4-6.933-126.133-79.867 98-79.867-98-6.933 126.133-122.133-32.4 68.533 106.267-117.867 45.6 117.867 45.6-68.533 106.267 122.133-32.4 6.933 126.133z" />
<glyph unicode="&#xe90a;" glyph-name="related" d="M779.378 333.607v99.325h-252.31v81.028h252.31v249.696h-535.832v-249.696h250.926v-81.028h-250.926v-99.325h-83.642v-201.264h201.264v201.264h-85.026v66.729h218.33v-66.729h-83.027v-201.264h201.264v201.264h-85.641v66.729h219.56v-66.729h-83.642v-201.264h201.264v201.264h-84.872zM319.962 295.015v-121.465h-121.465v121.465h121.465zM571.349 295.015v-121.465h-121.465v121.465h121.465zM283.061 551.784v173.742h455.111v-173.742h-455.111zM823.505 173.55h-121.465v121.465h121.465v-121.465z" />
<glyph unicode="&#xe90b;" glyph-name="select-line" d="M832.267 254.667c-8.133 4-16.8 7.067-25.733 8.933-6.8 1.467-13.733 2.4-20.8 2.533-1.067 0-2.133 0-3.2 0-8.267 0-16.267-0.933-24-2.533-13.467-2.933-26-8.267-37.333-15.467l-388.267 388.267c1.2 1.733 2.267 3.6 3.333 5.467 5.6 9.733 9.733 20.4 12.133 31.733 0.933 4.667 1.733 9.333 2.133 14.133 0.267 3.2 0.4 6.533 0.4 9.867 0.133 8.267-0.8 16.267-2.4 24-11.067 50.933-56.533 89.333-110.8 89.333-62.533 0-113.333-50.8-113.333-113.333 0-54.267 38.267-99.733 89.333-110.8 4.133-0.933 8.4-1.6 12.8-2 3.733-0.4 7.467-0.533 11.2-0.533 8.267 0 16.267 0.933 24 2.533 4.267 0.933 8.4 2.133 12.4 3.467 8.933 3.067 17.2 7.2 24.933 12.133l388.267-388.267c-6.267-9.6-10.933-20.133-14.133-31.333-0.533-2-1.067-3.867-1.467-5.867-1.733-7.733-2.533-15.733-2.533-24 0-6.133 0.533-12.133 1.467-18 0.267-2 0.667-4 1.067-6 11.067-50.933 56.533-89.333 110.8-89.333 62.533 0 113.333 50.8 113.333 113.333 0 44.533-26 83.2-63.6 101.733zM269.467 625.733c-2.533-1.067-5.067-2.133-7.733-2.933-7.6-2.4-15.6-3.733-24-3.733-5.467 0-10.8 0.533-16 1.6-2.8 0.533-5.467 1.333-8 2.133-31.733 10.133-54.667 39.867-54.667 74.933 0 43.333 35.333 78.667 78.667 78.667 35.067 0 64.667-22.933 74.933-54.667 2.4-7.467 3.733-15.333 3.733-23.467 0-0.267 0-0.533 0-0.667 0-8.4-1.333-16.4-3.733-24s-6.133-14.8-10.667-21.2c-8.133-11.6-19.467-20.8-32.533-26.667zM782.533 74.133c-35.067 0-64.667 22.933-74.933 54.667-0.4 1.333-0.8 2.667-1.2 4.133-1.733 6.4-2.533 13.067-2.533 19.867 0 8.4 1.333 16.4 3.733 24 0.4 1.333 0.933 2.667 1.467 4 8.533 22.133 26.8 39.6 49.467 46.933 6.133 2 12.667 3.2 19.333 3.6 1.467 0.133 3.067 0.133 4.667 0.133 8.4 0 16.4-1.333 24-3.733 6.4-2 12.4-4.933 17.867-8.4 22.133-14 36.8-38.533 36.8-66.533 0-43.333-35.333-78.667-78.667-78.667z" />
<glyph unicode="&#xe90c;" glyph-name="select-point" d="M756.667 454.133c-22.933 105.867-117.333 185.467-230 185.467-129.733 0-235.333-105.6-235.333-235.333 0-112.667 79.6-207.067 185.467-230 8.667-1.867 17.467-3.333 26.533-4.133 7.733-0.8 15.467-1.2 23.333-1.2 17.067 0 33.733 1.867 49.867 5.333 8.8 1.867 17.467 4.267 25.867 7.2 54.933 18.8 100.8 57.333 129.067 107.067 11.467 20.267 20.133 42.4 25.2 65.867 2.133 9.6 3.6 19.333 4.4 29.333 0.533 6.8 0.933 13.6 0.933 20.533 0 17.067-1.867 33.733-5.333 49.867zM690 404.267c0-17.333-2.8-34.133-7.867-49.867-5.067-15.867-12.667-30.8-22-44.133-16.933-24-40.267-43.333-67.467-55.333-5.2-2.4-10.667-4.4-16.133-6.267-15.733-5.067-32.4-7.867-49.867-7.867-11.333 0-22.4 1.2-33.067 3.467-5.733 1.2-11.333 2.667-16.667 4.4-65.733 21.067-113.467 82.8-113.467 155.6 0 90 73.333 163.333 163.333 163.333 72.667 0 134.4-47.733 155.6-113.467 4.933-15.333 7.6-31.733 7.733-48.667-0.133-0.4-0.133-0.8-0.133-1.2z" />
<glyph unicode="&#xe90d;" glyph-name="select-rectangle" d="M840.933 253.733v388.4c50.933 11.067 89.333 56.533 89.333 110.8 0 62.533-50.8 113.333-113.333 113.333-54.267 0-99.733-38.267-110.8-89.333h-388.267c-11.067 50.933-56.533 89.333-110.8 89.333-62.533 0-113.333-50.8-113.333-113.333 0-54.267 38.267-99.733 89.333-110.8v-388.267c-50.933-11.067-89.333-56.533-89.333-110.8 0-62.533 50.8-113.333 113.333-113.333 54.267 0 99.733 38.267 110.8 89.333h424.133c-2.4 7.467-3.733 15.6-3.733 24s1.333 16.267 3.733 23.867v0c7.867 24.133 26.933 43.2 50.933 50.933v0c7.6 2.4 15.6 3.733 24 3.733s16.4-1.333 24-3.733c31.733-10.133 54.667-39.867 54.667-74.933 0-43.333-35.333-78.667-78.667-78.667-35.067 0-64.667 22.933-74.933 54.667h-35.867c11.067-50.933 56.533-89.333 110.8-89.333 62.533 0 113.333 50.8 113.333 113.333 0 54.4-38.267 99.733-89.333 110.8zM816.933 831.6c43.333 0 78.667-35.333 78.667-78.667 0-35.067-22.933-64.667-54.667-74.933-7.467-2.4-15.6-3.733-24-3.733s-16.4 1.333-24 3.733v0.133c-24.133 7.733-43.067 26.667-50.933 50.8h0.133c-2.4 7.6-3.733 15.6-3.733 24s1.333 16.4 3.733 24h-0.133c10.267 31.733 40 54.667 74.933 54.667zM128.4 752.933c0 43.333 35.333 78.667 78.667 78.667 35.067 0 64.667-22.933 74.933-54.667 2.4-7.467 3.733-15.6 3.733-24s-1.333-16.4-3.733-24h-0.133c-7.733-24.133-26.667-43.067-50.8-50.933v0.133c-7.6-2.4-15.6-3.733-24-3.733s-16.4 1.333-24 3.733v-0.133c-31.733 10.267-54.667 40-54.667 74.933zM207.067 64.4c-43.333 0-78.667 35.333-78.667 78.667 0 35.067 22.933 64.667 54.667 74.933 7.467 2.4 15.6 3.733 24 3.733s16.4-1.333 24-3.733v-0.133c24.133-7.733 43.067-26.667 50.933-50.8h-0.133c2.4-7.6 3.733-15.6 3.733-24s-1.333-16.4-3.733-24h0.133c-10.267-31.733-40-54.667-74.933-54.667zM706.133 167.067v0h-388.267c-9.467 43.333-43.6 77.333-86.8 86.667v388.4c43.333 9.467 77.333 43.6 86.667 86.8h388.4c9.467-43.333 43.6-77.333 86.8-86.667v-388.533c-43.2-9.333-77.2-43.333-86.8-86.667z" />
<glyph unicode="&#xe90e;" glyph-name="select-shape" d="M840.933 663.6c-38.533 0-72.667-19.333-93.2-48.933h0.133c-8.267-12-14.4-25.733-17.6-40.4-0.267-1.333-0.533-2.8-0.8-4.133v0c-1.2-6.4-1.733-13.067-1.733-19.867 0-8.267 0.933-16.267 2.533-24 7.467-34.267 30.267-62.667 60.933-77.733v0 0l-48.4-216.267-7.733-34.8c1.467 0.133 3.067 0.133 4.667 0.133 8.4 0 16.4-1.333 24-3.733 6.4-2 12.4-4.933 17.867-8.4v0c22-14 36.667-38.667 36.667-66.4 0-43.333-35.333-78.667-78.667-78.667-35.067 0-64.667 22.933-74.933 54.667-0.4 1.333-0.8 2.667-1.2 4.133-1.6 6.267-2.533 12.933-2.533 19.867 0 8.4 1.333 16.4 3.733 24 0.4 1.333 0.933 2.667 1.467 4 8.533 22.133 26.8 39.6 49.467 46.933 6.133 2 12.667 3.2 19.333 3.6l7.733 34.8c-1.067 0-2.133 0-3.2 0-8 0-16.133-0.933-23.867-2.667-41.2-8.933-74.267-40.4-85.333-80.8l-229.333 12.133c-0.267 2-0.667 3.867-1.2 5.867-9.333 43.333-43.467 77.467-86.667 86.8-5.867 1.333-11.867 2.133-18 2.4l4.667-35.2c4.533-0.667 9.067-1.6 13.333-3.067 24.133-7.733 43.2-26.8 50.933-50.933 0.4-1.333 0.8-2.8 1.2-4.133v0c1.6-6.4 2.533-12.8 2.533-19.733 0-8.4-1.333-16.4-3.733-24-0.4-1.333-0.933-2.667-1.467-4.133-11.333-29.6-40-50.533-73.467-50.533-43.333 0-78.667 35.333-78.667 78.667 0 30.133 16.933 56.133 41.867 69.467v-0.133c4.133 2.267 8.267 4.133 12.8 5.467 7.6 2.4 15.6 3.733 24 3.733 3.6 0 7.2-0.267 10.667-0.8l-4.667 35.2c-2 0.133-4 0.133-6 0.133-8.267 0-16.267-0.933-24-2.533-6-1.333-11.733-3.067-17.333-5.333v0.267c-42-16.533-71.867-57.6-71.867-105.467 0-62.533 50.8-113.333 113.333-113.333 52.133 0 96.133 35.333 109.2 83.333 0.267 1.067 0.533 2 0.8 2.933-0.267-1.067-0.533-2-0.8-2.933l229.333-12.133c0.267-2 0.667-3.867 1.067-5.867 11.067-50.933 56.533-89.333 110.8-89.333 62.533 0 113.333 50.8 113.333 113.333 0 44.667-26 83.333-63.6 101.733v0c-8.133 4-16.667 7.067-25.6 8.8-2.4 0.533-4.8 0.933-7.067 1.333 2.4-0.4 4.667-0.8 6.933-1.2 9.067-2 17.733-5.067 25.733-8.933l48.4 216.267 7.733 34.8c-1.467-0.267-2.933-0.267-4.533-0.267-8.4 0-16.4 1.333-24 3.733-6.4 2-12.4 4.933-17.867 8.4v0c-15.467 9.867-27.333 24.8-32.933 42.533-2.4 7.6-3.733 15.6-3.733 24 0 3.2 0.267 6.533 0.533 9.6v0c0.667 4.933 1.733 9.733 3.2 14.4 3.6 11.067 9.6 21.2 17.333 29.6h-0.133c14.4 15.467 34.8 25.067 57.6 25.067 43.333 0 78.667-35.333 78.667-78.667 0-35.067-22.933-64.667-54.667-74.933-6.133-2-12.667-3.2-19.467-3.6l-7.733-34.8c1.067 0 2.133 0 3.2 0 8.267 0 16.267 0.933 24 2.533 50.933 11.067 89.333 56.533 89.333 110.8 0 62.533-50.8 113.333-113.333 113.333zM402 133.867c0.267 3.067 0.4 6.133 0.4 9.2s-0.133 6.133-0.4 9.067c0.267-2.933 0.4-6 0.4-9.067s-0.133-6.133-0.4-9.2zM320 745.067c0.267 3.2 0.4 6.533 0.4 9.867 0 8.267-0.933 16.267-2.533 24-11.067 50.933-56.533 89.333-110.8 89.333-62.533 0-113.333-50.8-113.333-113.333 0-54.267 38.267-99.733 89.333-110.8 4.133-0.933 8.267-1.6 12.667-2v0c0.133 0 0.133 0 0.267 0l51.867-393.6c5.6 2.267 11.467 4 17.467 5.333 7.467 1.6 15.467 2.533 23.733 2.533 2 0 4 0 6-0.133l-51.467 391.333c-4-1.333-8.267-2.533-12.4-3.467-7.733-1.733-15.733-2.533-24-2.533 0 0-0.133 0-0.133 0 8.267 0 16.267 0.8 24 2.533 4.267 0.933 8.4 2.133 12.4 3.467v0c26.667 9.067 48.533 27.6 62.133 51.6l-34.4 10.4c-8.133-11.6-19.467-20.8-32.533-26.667v0c-2.533-1.067-4.933-2.133-7.6-2.933-7.6-2.4-15.6-3.733-24-3.733-5.467 0-10.667 0.533-15.867 1.6v0c-2.933 0.533-5.6 1.2-8.133 2.133-31.733 10.133-54.667 39.867-54.667 74.933 0 43.333 35.333 78.667 78.667 78.667 35.067 0 64.667-22.933 74.933-54.667 2.4-7.467 3.733-15.333 3.733-23.467v0c0-0.267 0-0.4 0-0.667 0-8.4-1.333-16.4-3.733-24s-6.133-14.8-10.667-21.2l34.267-10.4c0 0 0 0 0 0l423.733-129.067c0.267 1.333 0.533 2.8 0.8 4.133 3.2 14.8 9.333 28.4 17.6 40.4l-427.733 130.267c0 0 0 0.133 0 0.133z" />
<glyph unicode="&#xe90f;" glyph-name="subtract-from-selection" d="M594.133 416.8h-40v-33.333h-33.333v-40h73.333zM364.667 383.467h89.2v-40h-89.2v40zM208.533 383.467h89.2v-40h-89.2v40zM108.4 416.8h-40v-73.333h73.333v40h-33.333zM68.4 728.933h40v-89.2h-40v89.2zM68.4 572.8h40v-89.2h-40v89.2zM68.4 795.867h40v33.333h33.333v40h-73.333zM208.533 869.2h89.2v-40h-89.2v40zM364.667 869.2h89.2v-40h-89.2v40zM554.133 795.867h40v73.333h-73.333v-40h33.333zM554.133 728.933h40v-89.2h-40v89.2zM554.133 572.8h40v-89.2h-40v89.2zM632.133 604.933v-40h186v-445.733h-445.733v182h-40v-222h525.733v525.733zM237.2 631.2h188v-40h-188v40z" />
<glyph unicode="&#xe910;" glyph-name="view-advanced" d="M57.333 741.333v-648h908v648h-908zM925.333 133.333h-628v568h628v-568zM341.333 658.667h253.2v-219.6h-253.2v219.6zM341.333 396.933h253.2v-219.6h-253.2v219.6z" />
<glyph unicode="&#xe911;" glyph-name="view-default" d="M925.333 701.333v-568h-828v568h828zM965.333 741.333h-908v-648h908v648zM141.333 658.667h253.2v-219.6h-253.2v219.6zM141.333 396.933h253.2v-219.6h-253.2v219.6z" />
<glyph unicode="&#xe912;" glyph-name="view-minimal" d="M57.333 741.333v-648h908v648h-908zM97.333 133.333v474.667h828v-474.667h-828z" />
<glyph unicode="&#xe913;" glyph-name="zoom-in" d="M600.747 794.152c-56.42 56.42-130.309 84.731-204.398 84.731s-147.978-28.311-204.398-84.731c-112.841-112.841-112.841-295.956 0-408.797 56.42-56.621 130.51-84.731 204.398-84.731s147.978 28.311 204.398 84.731c112.841 112.841 112.841 295.956 0 408.797zM396.348 368.891c-59.031 0-114.447 22.889-156.21 64.653-41.562 41.763-64.653 97.18-64.653 156.21s22.889 114.447 64.653 156.21c41.763 41.562 97.18 64.653 156.21 64.653s114.447-22.889 156.21-64.653c41.763-41.763 64.653-97.18 64.653-156.21s-22.889-114.447-64.653-156.21c-41.763-41.763-97.18-64.653-156.21-64.653zM688.891 402.221l-97.983-97.983 298.165-254.996 65.255 65.255zM421.446 703.197h-42.165v-95.373h-95.373v-42.165h95.373v-95.373h42.165v95.373h95.373v42.165h-95.373z" />
<glyph unicode="&#xe914;" glyph-name="zoom-out" d="M372.795 792.005c58.175 0 112.788-22.558 153.946-63.716s63.716-95.771 63.716-153.946-22.558-112.788-63.716-153.946-95.771-63.716-153.946-63.716-112.788 22.558-153.946 63.716c-40.96 41.158-63.716 95.771-63.716 153.946s22.558 112.788 63.716 153.946c41.158 40.96 95.771 63.716 153.946 63.716zM372.795 859.282c-73.016 0-145.833-27.9-201.436-83.503-111.205-111.205-111.205-291.667 0-402.872 55.603-55.801 128.618-83.503 201.436-83.503s145.833 27.9 201.436 83.503c111.205 111.205 111.205 291.667 0 402.872-55.603 55.603-128.42 83.503-201.436 83.503v0zM661.098 389.528l-96.563-96.563 293.843-251.3 64.309 64.309zM491.52 592.151h-229.534v-41.554h229.534z" />
<glyph unicode="&#xe915;" glyph-name="eye" horiz-adv-x="1101" d="M550.402 753.97c-223.25 0-399.76-120.697-494.78-310.583 94.866-189.886 271.529-301.357 494.78-301.357s399.76 111.471 494.78 301.357c-95.174 189.886-271.837 310.583-494.78 310.583zM802.558 593.605c60.118-38.285 111.010-89.792 149.449-150.217-38.285-60.425-89.331-111.779-149.449-150.217-75.647-48.279-162.825-73.648-252.31-73.648s-176.817 25.523-252.464 73.648c-59.964 38.285-110.856 89.792-149.295 150.217 38.285 60.425 89.331 111.779 149.449 150.217 3.998 2.614 7.841 4.92 11.839 7.38-9.994-27.368-15.375-56.735-15.375-87.486 0-141.3 114.547-255.846 255.846-255.846s255.846 114.547 255.846 255.846c0 30.751-5.381 60.271-15.375 87.486 3.998-2.46 7.995-4.92 11.839-7.38v0 0zM550.402 539.33c0-53.045-42.897-95.942-95.942-95.942s-95.942 42.897-95.942 95.942 42.897 95.942 95.942 95.942 95.942-42.897 95.942-95.942z" />
<glyph unicode="&#xe916;" glyph-name="no-eye" horiz-adv-x="1072" d="M468.809 265.647v0l365.011 619.013h-94.559l-84.103-142.683c-37.823 7.841-77.646 11.839-119.159 11.839-224.788 0-399.145-118.698-494.933-309.814 62.732-125.617 159.75-216.332 282.599-263.995l-99.632-168.668h94.559l85.333 144.682 64.884 109.626zM439.442 637.116c53.353 0 96.557-43.205 96.557-96.557 0-0.154 0-0.461 0-0.461l-49.509-83.95c-13.838-7.841-29.982-12.3-47.049-12.3-53.353 0-96.557 43.205-96.557 96.557s43.205 96.711 96.557 96.711zM281.998 292.861c-60.579 38.438-111.933 90.1-150.371 151.14 38.438 61.040 89.792 112.702 150.371 151.14 3.998 2.46 7.841 5.074 11.839 7.38-9.994-27.522-15.529-57.196-15.529-88.101 0-89.792 45.819-168.822 115.623-214.948l-28.598-48.894c-28.906 11.224-56.889 25.369-83.335 42.282zM782.313 698.464l-260.151-441.273c4.613-0.154 9.225-0.461 13.838-0.461 142.222 0 257.538 115.315 257.538 257.538 0 31.058-5.381 60.579-15.529 88.101 3.998-2.46 7.995-4.766 11.839-7.38v0c60.579-38.592 111.933-90.407 150.371-151.14-38.438-61.040-89.792-112.702-150.371-151.14-76.108-48.74-163.748-74.263-254.001-74.263-12.147 0-23.986 0.461-35.825 1.384l-43.051-73.033c25.523-3.229 51.969-4.766 79.029-4.766 224.788 0 399.145 110.703 494.933 301.819-56.889 113.778-141.761 201.879-248.62 254.616z" />
<glyph unicode="&#xe917;" glyph-name="autosave" d="M936.915 790.484c22.522-32.732 31.531-68.767 23.723-111.109-1.802-10.060-4.805-19.819-8.558-28.978l-40.389 32.732 10.51-100.748 100.748 10.51-38.137 31.080c7.207 14.865 12.612 31.080 15.765 48.197 18.918 102.4-48.948 201.046-151.648 220.115-28.528 5.255-56.906 3.904-83.181-3.153l24.774-36.035c16.666 2.703 33.933 2.552 51.050-0.601 39.038-7.357 72.821-29.279 95.343-62.011zM808.389 517.368c16.967-0.601 33.483 1.201 49.398 4.955v0c10.961 2.552 21.471 6.156 31.681 10.51l-23.423 34.083c-24.774-9.159-51.65-11.561-78.377-6.606-39.038 7.207-72.821 29.128-95.343 61.86-0.15 0.15-0.15 0.3-0.3 0.45v0c-19.219 28.228-28.077 61.56-25.375 95.193 0.45 5.255 1.051 10.36 2.102 15.465 2.252 11.862 5.706 23.123 10.51 33.783v0c3.754 8.258 8.108 16.216 13.213 23.573l39.639-37.086-0.15 3.604-3.303 97.595-101.199-3.453 35.134-32.882c-9.91-13.363-18.018-28.077-24.174-43.993 0 0-9.159-23.723-11.862-49.699-3.303-32.582 2.102-64.413 14.264-92.941v0c9.459-22.072 22.822-42.041 39.789-59.008l0.15-0.15c26.126-26.276 60.209-45.194 99.547-52.401 9.309-1.652 18.768-2.552 28.077-2.853zM585.722 627.125h-434.374c-42.792 0-77.776-34.984-77.776-77.776v-466.506c0-42.792 34.984-77.776 77.776-77.776h466.506c42.792 0 77.776 34.984 77.776 77.776v422.663l-109.907 121.619zM540.077 393.797c0-21.321-17.567-38.888-38.888-38.888h-233.178c-21.321 0-38.888 17.567-38.888 38.888v194.44h310.954v-194.44zM501.189 549.349h-77.776v-155.552h77.776v155.552z" />
<glyph unicode="&#xe918;" glyph-name="continuous-select" d="M878.933 63.867h-40.8v-49.067h89.867v89.867h-49.067zM569.067 63.867h153.733v-49.067h-153.733v49.067zM299.867 63.867h153.733v-49.067h-153.733v49.067zM143.733 104.667h-49.067v-89.867h89.867v49.067h-40.8zM94.667 642.933h49.067v-153.733h-49.067v153.733zM94.667 373.733h49.067v-153.733h-49.067v153.733zM94.667 758.267h49.067v40.8h40.8v49.067h-89.867zM299.867 848.133h153.733v-49.067h-153.733v49.067zM878.933 373.733h49.067v-153.733h-49.067v153.733zM878.933 758.267h49.067v89.867h-89.867v-49.067h40.8zM569.067 848.133h153.733v-49.067h-153.733v49.067zM878.933 642.933h49.067v-153.733h-49.067v153.733zM759.6 492.933c-13.733 17.867-33.6 30.8-57.467 37.733-33.733 9.6-72.667 6.8-109.733-8.133-29.333-11.867-55.467-30.4-76.533-54.4-49.867 62.667-128.4 77.6-184.267 63.733-55.2-13.733-89.467-53.333-89.467-103.467 0-46.267 28.667-82.133 76.667-96 32-9.2 71.6-7.733 108.533 3.867 33.733 10.667 63.733 29.333 86.267 53.333 18.533-21.467 43.2-38.4 72.4-49.733 23.467-9.067 48.667-13.733 72.933-13.733 0 0 0 0 0 0 14.133 0 27.6 1.6 40.267 4.667 50.933 12.667 81.2 49.067 81.2 97.467 0.267 24.533-7.067 46.8-20.8 64.667zM734.8 428.4c0-18.933-8.133-43.467-46.533-53.067-46.4-11.6-114 6.933-146.267 52.4 40.533 54.267 105.2 71.2 147.467 59.067 29.333-8.533 45.333-29.2 45.333-58.4zM419.333 381.867c-30.267-10.8-62.133-12.8-87.733-5.467-36 10.267-43.6 34-43.6 52 0 28.933 20 50.4 54.8 59.067 9.467 2.4 19.467 3.467 29.733 3.467 36.8 0 85.333-16.4 115.2-61.6-16.667-20.933-40.667-37.6-68.4-47.467z" />
<glyph unicode="&#xe919;" glyph-name="check" d="M896 746.667q18.333 0 30.5-12.167t12.167-30.5q0-18-12.333-30.333l-512-512q-12.333-12.333-30.333-12.333t-30.333 12.333l-256 256q-12.333 12.333-12.333 30.333 0 18.333 12.167 30.5t30.5 12.167q18 0 30.333-12.333l225.667-226 481.667 482q12.333 12.333 30.333 12.333z" />
<glyph unicode="&#xe925;" glyph-name="pan_tool" d="M982 704.667v-620c0-94-78-170-172-170h-310c-46 0-90 18-122 50l-336 342s54 52 56 52c10 8 22 12 34 12 10 0 18-2 26-6 2 0 184-104 184-104v508c0 36 28 64 64 64s64-28 64-64v-300h42v406c0 36 28 64 64 64s64-28 64-64v-406h42v364c0 36 28 64 64 64s64-28 64-64v-364h44v236c0 36 28 64 64 64s64-28 64-64z" />
<glyph unicode="&#xe92e;" glyph-name="stack" d="M1024 640l-512 256-512-256 512-256 512 256zM512 811.030l342.058-171.030-342.058-171.030-342.058 171.030 342.058 171.030zM921.444 499.278l102.556-51.278-512-256-512 256 102.556 51.278 409.444-204.722zM921.444 307.278l102.556-51.278-512-256-512 256 102.556 51.278 409.444-204.722z" />
<glyph unicode="&#xe965;" glyph-name="undo" d="M512 832c-121.186 0-230.894-49.132-310.314-128.552l-128.544 128.552v-329.142h329.142l-123.028 123.018c59.568 59.564 141.85 96.41 232.742 96.41 181.772 0 329.142-147.364 329.142-329.142 0-98.31-43.108-186.546-111.444-246.858l72.57-82.286c91.116 80.414 148.588 198.066 148.588 329.142 0 242.374-196.482 438.858-438.858 438.858z" />
<glyph unicode="&#xe966;" glyph-name="redo" d="M73.144 393.144c0-131.076 57.468-248.728 148.586-329.144l72.57 82.284c-68.338 60.312-111.444 148.548-111.444 246.856 0 181.78 147.37 329.144 329.144 329.144 90.894 0 173.174-36.846 232.74-96.41l-123.026-123.018h329.144v329.144l-128.546-128.554c-79.418 79.422-189.124 128.554-310.31 128.554-242.374 0-438.856-196.482-438.856-438.856z" />
<glyph unicode="&#xe967;" glyph-name="undo2" d="M761.862-64c113.726 206.032 132.888 520.306-313.862 509.824v-253.824l-384 384 384 384v-248.372c534.962 13.942 594.57-472.214 313.862-775.628z" />
<glyph unicode="&#xe968;" glyph-name="redo2" d="M576 711.628v248.372l384-384-384-384v253.824c-446.75 10.482-427.588-303.792-313.86-509.824-280.712 303.414-221.1 789.57 313.86 775.628z" />
<glyph unicode="&#xe971;" glyph-name="user" d="M576 253.388v52.78c70.498 39.728 128 138.772 128 237.832 0 159.058 0 288-192 288s-192-128.942-192-288c0-99.060 57.502-198.104 128-237.832v-52.78c-217.102-17.748-384-124.42-384-253.388h896c0 128.968-166.898 235.64-384 253.388z" />
<glyph unicode="&#xe9ac;" glyph-name="bin" d="M128 640v-640c0-35.2 28.8-64 64-64h576c35.2 0 64 28.8 64 64v640h-704zM320 64h-64v448h64v-448zM448 64h-64v448h64v-448zM576 64h-64v448h64v-448zM704 64h-64v448h64v-448zM848 832h-208v80c0 26.4-21.6 48-48 48h-224c-26.4 0-48-21.6-48-48v-80h-208c-26.4 0-48-21.6-48-48v-80h832v80c0 26.4-21.6 48-48 48zM576 832h-192v63.198h192v-63.198z" />
<glyph unicode="&#xe9ae;" glyph-name="briefcase" d="M960 704h-256v64c0 35.2-28.8 64-64 64h-256c-35.204 0-64-28.8-64-64v-64h-256c-35.2 0-64-28.8-64-64v-576c0-35.202 28.796-64 64-64h896c35.2 0 64 28.798 64 64v576c0 35.2-28.8 64-64 64zM384 767.884c0.034 0.040 0.074 0.082 0.114 0.116h255.772c0.042-0.034 0.082-0.076 0.118-0.116v-63.884h-256.004v63.884zM960 448h-128v-96c0-17.602-14.4-32-32-32h-64c-17.604 0-32 14.398-32 32v96h-384v-96c0-17.602-14.4-32-32-32h-64c-17.602 0-32 14.398-32 32v96h-128v64h896v-64z" />
<glyph unicode="&#xe9b8;" glyph-name="clipboard" d="M928 832h-288c0 70.692-57.306 128-128 128-70.692 0-128-57.308-128-128h-288c-17.672 0-32-14.328-32-32v-832c0-17.674 14.328-32 32-32h832c17.674 0 32 14.326 32 32v832c0 17.672-14.326 32-32 32zM512 896c35.346 0 64-28.654 64-64s-28.654-64-64-64c-35.346 0-64 28.654-64 64s28.654 64 64 64zM896 0h-768v768h128v-96c0-17.672 14.328-32 32-32h448c17.674 0 32 14.328 32 32v96h128v-768zM448 101.49l-205.254 237.254 58.508 58.51 146.746-114.744 274.742 242.744 58.514-58.508z" />
<glyph unicode="&#xe9bd;" glyph-name="menu" d="M64 768h896v-192h-896zM64 512h896v-192h-896zM64 256h896v-192h-896z" />
<glyph unicode="&#xe9ca;" glyph-name="earth" d="M512 960c-282.77 0-512-229.23-512-512s229.23-512 512-512 512 229.23 512 512-229.23 512-512 512zM512-0.002c-62.958 0-122.872 13.012-177.23 36.452l233.148 262.29c5.206 5.858 8.082 13.422 8.082 21.26v96c0 17.674-14.326 32-32 32-112.99 0-232.204 117.462-233.374 118.626-6 6.002-14.14 9.374-22.626 9.374h-128c-17.672 0-32-14.328-32-32v-192c0-12.122 6.848-23.202 17.69-28.622l110.31-55.156v-187.886c-116.052 80.956-192 215.432-192 367.664 0 68.714 15.49 133.806 43.138 192h116.862c8.488 0 16.626 3.372 22.628 9.372l128 128c6 6.002 9.372 14.14 9.372 22.628v77.412c40.562 12.074 83.518 18.588 128 18.588 70.406 0 137.004-16.26 196.282-45.2-4.144-3.502-8.176-7.164-12.046-11.036-36.266-36.264-56.236-84.478-56.236-135.764s19.97-99.5 56.236-135.764c36.434-36.432 85.218-56.264 135.634-56.26 3.166 0 6.342 0.080 9.518 0.236 13.814-51.802 38.752-186.656-8.404-372.334-0.444-1.744-0.696-3.488-0.842-5.224-81.324-83.080-194.7-134.656-320.142-134.656z" />
<glyph unicode="&#xe9cb;" glyph-name="link" d="M440.236 324.234c-13.31 0-26.616 5.076-36.77 15.23-95.134 95.136-95.134 249.934 0 345.070l192 192c46.088 46.086 107.36 71.466 172.534 71.466s126.448-25.38 172.536-71.464c95.132-95.136 95.132-249.934 0-345.070l-87.766-87.766c-20.308-20.308-53.23-20.308-73.54 0-20.306 20.306-20.306 53.232 0 73.54l87.766 87.766c54.584 54.586 54.584 143.404 0 197.99-26.442 26.442-61.6 41.004-98.996 41.004s-72.552-14.562-98.996-41.006l-192-191.998c-54.586-54.586-54.586-143.406 0-197.992 20.308-20.306 20.306-53.232 0-73.54-10.15-10.152-23.462-15.23-36.768-15.23zM256-52c-65.176 0-126.45 25.38-172.534 71.464-95.134 95.136-95.134 249.934 0 345.070l87.764 87.764c20.308 20.306 53.234 20.306 73.54 0 20.308-20.306 20.308-53.232 0-73.54l-87.764-87.764c-54.586-54.586-54.586-143.406 0-197.992 26.44-26.44 61.598-41.002 98.994-41.002s72.552 14.562 98.998 41.006l192 191.998c54.584 54.586 54.584 143.406 0 197.992-20.308 20.308-20.306 53.232 0 73.54 20.306 20.306 53.232 20.306 73.54-0.002 95.132-95.134 95.132-249.932 0.002-345.068l-192.002-192c-46.090-46.088-107.364-71.466-172.538-71.466z" />
<glyph unicode="&#xea08;" glyph-name="notification" d="M512 864c-111.118 0-215.584-43.272-294.156-121.844s-121.844-183.038-121.844-294.156c0-111.118 43.272-215.584 121.844-294.156s183.038-121.844 294.156-121.844c111.118 0 215.584 43.272 294.156 121.844s121.844 183.038 121.844 294.156c0 111.118-43.272 215.584-121.844 294.156s-183.038 121.844-294.156 121.844zM512 960v0c282.77 0 512-229.23 512-512s-229.23-512-512-512c-282.77 0-512 229.23-512 512s229.23 512 512 512zM448 256h128v-128h-128zM448 768h128v-384h-128z" />
<glyph unicode="&#xea0a;" glyph-name="plus" d="M992 576h-352v352c0 17.672-14.328 32-32 32h-192c-17.672 0-32-14.328-32-32v-352h-352c-17.672 0-32-14.328-32-32v-192c0-17.672 14.328-32 32-32h352v-352c0-17.672 14.328-32 32-32h192c17.672 0 32 14.328 32 32v352h352c17.672 0 32 14.328 32 32v192c0 17.672-14.328 32-32 32z" />
<glyph unicode="&#xea0b;" glyph-name="minus" d="M0 544v-192c0-17.672 14.328-32 32-32h960c17.672 0 32 14.328 32 32v192c0 17.672-14.328 32-32 32h-960c-17.672 0-32-14.328-32-32z" />
<glyph unicode="&#xea0c;" glyph-name="info" d="M448 656c0 26.4 21.6 48 48 48h32c26.4 0 48-21.6 48-48v-32c0-26.4-21.6-48-48-48h-32c-26.4 0-48 21.6-48 48v32zM640 192h-256v64h64v192h-64v64h192v-256h64zM512 960c-282.77 0-512-229.23-512-512s229.23-512 512-512 512 229.23 512 512-229.23 512-512 512zM512 32c-229.75 0-416 186.25-416 416s186.25 416 416 416 416-186.25 416-416-186.25-416-416-416z" />
<glyph unicode="&#xea2e;" glyph-name="loop2" d="M889.68 793.68c-93.608 102.216-228.154 166.32-377.68 166.32-282.77 0-512-229.23-512-512h96c0 229.75 186.25 416 416 416 123.020 0 233.542-53.418 309.696-138.306l-149.696-149.694h352v352l-134.32-134.32zM928 448c0-229.75-186.25-416-416-416-123.020 0-233.542 53.418-309.694 138.306l149.694 149.694h-352v-352l134.32 134.32c93.608-102.216 228.154-166.32 377.68-166.32 282.77 0 512 229.23 512 512h-96z" />
</font>
</defs>
</svg>
